Крематорий / Crematorio / Сезон: 1 / Серии: 1-8 (8) (Хорхе Санчес-Кабесудо) [2011, Испания, Драмы, Криминал, HDRip] MVO (СВ Студия) + Original

Страницы:  1

Ответить
Автор
Сообщение

СВ Студия

Стаж: 5 месяцев 26 дней

Сообщений: 38


СВ Студия · 15-Июн-19 07:47 (1 месяц 3 дня назад, ред. 15-Июн-19 14:21)

Крематорий / Crematorio
Год выпуска: 2011
Страна: Испания
Жанр: триллер, драма
Продолжительность: ~ 00:50:00
Перевод: Профессиональный (многоголосый закадровый) СВ Студия
Режиссёр: Хорхе Санчес-Кабесудо
В ролях: Хосе Санчо, Алисия Боррачеро, Хуана Акоста, Пау Дура, Мануэль Морон, Висенте Ромеро, Пеп Тосар, Аура Гарридо, Влад Иванов, Чиско Амадо
Описание: Сериал снят по одноименному роману Рафаэля Чирбиса.
История семьи Бертомеу, которая за несколько поколений сумела сколотить огромное состояние. Рубен Бертомеу решает бросить бизнес в сельском хозяйстве, чтобы заняться строительным бизнесом, дабы стать самым богатым и могущественным человеком в Мисенте. Но семья не разделяет его видение прогресса и средств достижения поставленных целей.
Ссылка на предыдущие и альтернативные раздачи

Сэмпл
Качество: HDRip (Исходник BluRay 1080p)
Контейнер: AVI
Видео: 720x408 (1.80:1), 24 fps, XviD ~1500 kbps avg, 0.212 bit/pixel
Аудио#1: Русский, 48 kHz, MP3, 2/0 (L,R) + LFE ch, ~192 kbps avg |СВ Студия|
Аудио#2: Испанский, 48 kHz, MP3, 2/0 (L,R) + LFE ch, ~192 kbps avg |Оригинал|
Реклама: аудио (два раза, в начале и конце, по 10 сек.)
MediaInfo
Формат                                   : AVI
Формат/Информация : Audio Video Interleave
Размер файла : 684 Мбайт
Продолжительность : 50 м. 44 с.
Общий поток : 1884 Кбит/сек
Видео
Идентификатор : 0
Формат : MPEG-4 Visual
Профиль формата : Advanced [email protected]
Настройки формата : BVOP2
Параметр BVOP формата : 2
Параметр QPel формата : Нет
Параметр GMC формата : Без точки перехода
Параметр матрицы формата : Default (H.263)
Идентификатор кодека : XVID
Идентификатор кодека/Подсказка : XviD
Продолжительность : 50 м. 44 с.
Битрейт : 1493 Кбит/сек
Ширина : 720 пикселей
Высота : 408 пикселей
Соотношение сторон : 16:9
Частота кадров : 24,000 кадра/сек
Цветовое пространство : YUV
Субдискретизация насыщенности : 4:2:0
Битовая глубина : 8 бит
Тип развёртки : Прогрессивная
Метод сжатия : С потерями
Бит/(Пиксели*Кадры) : 0.212
Размер потока : 542 Мбайт (79%)
Библиотека кодирования : XviD 67
Аудио #1
Идентификатор : 1
Формат : MPEG Audio
Версия формата : Version 1
Профиль формата : Layer 3
Настройки формата : Joint stereo / MS Stereo
Идентификатор кодека : 55
Идентификатор кодека/Подсказка : MP3
Продолжительность : 50 м. 44 с.
Вид битрейта : Постоянный
Битрейт : 192 Кбит/сек
Каналы : 2 канала
Частота : 48,0 КГц
Частота кадров : 41,667 кадра/сек (1152 SPF)
Метод сжатия : С потерями
Размер потока : 69,7 Мбайт (10%)
Выравнивание : Соединение по промежуткам
Продолжительность промежутка : 167 мс. (4,00 видеокадра)
Время предзагрузки промежутка : 216 мс.
Заголовок : Crematorio.S01E01.1080p.BluRay - [1][0] Russian_audio
Библиотека кодирования : LAME3.100
Настройки программы : -m j -V 4 -q 2 -lowpass 18.6 -b 192
Аудио #2
Идентификатор : 2
Формат : MPEG Audio
Версия формата : Version 1
Профиль формата : Layer 3
Настройки формата : Joint stereo / MS Stereo
Идентификатор кодека : 55
Идентификатор кодека/Подсказка : MP3
Продолжительность : 50 м. 44 с.
Вид битрейта : Постоянный
Битрейт : 192 Кбит/сек
Каналы : 2 канала
Частота : 48,0 КГц
Частота кадров : 41,667 кадра/сек (1152 SPF)
Метод сжатия : С потерями
Размер потока : 69,7 Мбайт (10%)
Выравнивание : Соединение по промежуткам
Продолжительность промежутка : 167 мс. (4,00 видеокадра)
Время предзагрузки промежутка : 216 мс.
Заголовок : Crematorio.S01E01.1080p.BluRay - [2][1] Spanish_audio
Библиотека кодирования : LAME3.100
Настройки программы : -m j -V 4 -q 2 -lowpass 18.6 -b 192
Скриншоты
Download
Для скачивания .torrent файлов необходима регистрация
Сайт не распространяет и не хранит электронные версии произведений, а лишь предоставляет доступ к создаваемому пользователями каталогу ссылок на торрент-файлы, которые содержат только списки хеш-сумм
Wentworth_Miller писал(а):
77532272Сэмпл не должен быть под споилером.
Ссылку и сэмпл я поправил в виде исключения. Озвучка у вас хорошая, побольше бы релизов.
СВ Студия писал(а):
77531739720x408
Не кратно 16
СВ Студия писал(а):
77531739Реклама: аудио (два раза, в начале и конце, по 10 сек.)

# Сомнительно

[Профиль]  [ЛС] 

Wentworth_Miller

Moderator

Стаж: 10 лет 4 месяца

Сообщений: 7474

Wentworth_Miller · 15-Июн-19 12:52 (спустя 5 часов, ред. 15-Июн-19 12:52)

Добрый день.
Нужно немного поправить оформление.
СВ Студия писал(а):
77531739ериал снят по одноименному роману Рафаэля Чирбиса.
Не хватает буквы С
СВ Студия писал(а):
77531739Ссылка на предыдущие и альтернативные раздачи
Только название сериала на английском языке
О ссылках на предыдущие и альтернативные раздачи...
СВ Студия писал(а):
77531739Качество: HDRip
Укажите исходник пожалуйста
СВ Студия писал(а):
77531739MediaInfo
Закрепите в теги
Код:
[pre][/pre]
Сэмпл не должен быть под споилером.
[Профиль]  [ЛС] 

Wentworth_Miller

Moderator

Стаж: 10 лет 4 месяца

Сообщений: 7474

Wentworth_Miller · 23-Июн-19 00:18 (спустя 7 дней, ред. 23-Июн-19 00:18)

Wentworth_Miller писал(а):
77532272Сэмпл не должен быть под споилером.
Ссылку и сэмпл я поправил в виде исключения. Озвучка у вас хорошая, побольше бы релизов.
СВ Студия писал(а):
77531739720x408
Не кратно 16
СВ Студия писал(а):
77531739Реклама: аудио (два раза, в начале и конце, по 10 сек.)

# Сомнительно

[Профиль]  [ЛС] 

bot · 25-Июн-19 01:35 (спустя 2 дня 1 час)

Тема была перенесена из форума Зарубежные сериалы в форум Испанские сериалы
Wentworth_Miller
 

GALINA81

Стаж: 4 года 4 месяца

Сообщений: 787


GALINA81 · 28-Июн-19 05:17 (спустя 5 дней)

Мне сериал не пошел, хотя я люблю испанские. Сюжет не очень, нет ни одного симпатичного ГГ.
[Профиль]  [ЛС] 
 
Ответить
Loading...
Error