Заговор с целью убийства / Убийственный заговор / Murder Plot / Kong que wang chao (Чо Юэнь / Yuen Chor (as Chu Yuan)) [1979, Гонконг, Боевик, боевые искусства, DVD5 (custom)] VO (В. Береговых) + Original Zho

Страницы:  1

Ответить
Автор
Сообщение

vitolinform

Стаж: 1 год 5 месяцев

Сообщений: 502


vitolinform · 25-Июн-19 12:36 (22 дня назад)

Заговор с целью убийства / Убийственный заговор / Murder Plot / Kong que wang chao
Страна: Гонконг
Студия: Shaw Brothers
Жанр: Боевик, боевые искусства
Год выпуска: 1979
Продолжительность: 01:30:51
Перевод: Одноголосый закадровый | Виктор Береговых
Субтитры: нет
Оригинальная аудиодорожка: китайский
Режиссер: Чо Юэнь / Yuen Chor (as Chu Yuan)
В ролях:
Фэй Аи, Пинг Чен, Кон Чюн, Дэвид Чиан, Нэн Чианг, Ли Чинг, Миао Чинг, Норман Чу, Чинг Вэнь Фанг, Тереза Хсиа Пинг, Вонг Пау-Кей, Ван Ханьчэнь, Ян Чичин, Фун Кинг-Ман, Шум Ло
Описание:
В 19 дневной кровавой битве на горе Чжан Бай погибло 900 мастеров боевых искусств.Спустя несколько лет глава крепости Янь И и главы шести основных кланов узнают, что во всем этом повинен Счастливый Король, глава павлиньего царства, сменивший на посту прежнего короля, внезапно исчезнувшего неизвестно куда.Мастера решают разобраться со Счастливым Королем и отправляются на его поиски и кроме того, его ищет Шень Лан (Дэвид Чиан), знаменитый фехтовальщик, у которого несколько иные мотивы. (В.Береговых)
| IMDb | КиноПоиск | Скачать сэмпл | HongKongCinema |
Диск найден в сети (Азияклуб asiandvdclub). К нему добавлена русская звуковая дорожка с переводом и озвучиванием Виктора Береговых. Используемые программы: PgcDemux, MuxMan0.15R, VobBlanker
Заказ перевода: vitolinform
Бонусы:
- Трейлеры;
- Фотогалерея;
- Фильмографии;
- Информация об актерах
Меню: Есть, статичное, озвученное, на китайском и английском языках
Тип релиза: DVD5 (custom)
Контейнер: DVD-Video
Видео: NTSC 16:9 (720x480) VBR Auto Letterboxed, ~6595.80 kbps, fps 29.970
Аудио 1: Russian (Dolby AC3, 2 ch) | AC3, 2/0 (L,R) ch, 192 kbps, 48.0 kHz, 16 bits | Одноголосый закадровый (Виктор Береговых)
Аудио 2: Chinese (Dolby AC3, 2 ch) | AC3, 2/0 (L,R) ch, 192 kbps, 48.0 kHz, 16 bits | Китайский
MediaInfo
Title: Zagovor.s.celyu.Ubiistva.1979.DVD5
Size: 4.35 Gb ( 4 565 850,00 KBytes ) - DVD-5
Enabled regions: 1, 2, 3, 4, 5, 6, 7, 8
VTS_01 :
Play Length: 01:30:51
Video: NTSC 16:9 (720x480) VBR, Auto Letterboxed
Audio:
Russian, AC3, 2/0 (L,R) ch, 192 kbps, Delay 0 mSec
Chinese, AC3, 2/0 (L,R) ch, 192 kbps, Delay 0 mSec
VTS_02 :
Play Length: 00:01:05
Video: NTSC 16:9 (720x480) VBR, Auto Letterboxed
Audio:
Chinese, AC3, 2/0 (L,R) ch, 192 kbps, Delay 0 mSec
Chinese, AC3, 2/0 (L,R) ch, 192 kbps, Delay 0 mSec
Subtitles:
Chinese
English
VTS_03 :
Play Length: 00:01:11
Video: NTSC 16:9 (720x480) VBR, Auto Letterboxed
Audio:
Chinese, AC3, 2/0 (L,R) ch, 192 kbps, Delay 0 mSec
Chinese, AC3, 2/0 (L,R) ch, 192 kbps, Delay 0 mSec
Subtitles:
Chinese
English
VTS_04 :
Play Length: 00:01:03
Video: NTSC 16:9 (720x480) VBR, Auto Letterboxed
Audio:
Chinese, AC3, 2/0 (L,R) ch, 192 kbps, Delay 0 mSec
Chinese, AC3, 2/0 (L,R) ch, 192 kbps, Delay 0 mSec
Subtitles:
Chinese
English
VTS_05 :
Play Length: 00:01:07
Video: NTSC 16:9 (720x480) VBR, Auto Letterboxed
Audio:
Chinese, AC3, 2/0 (L,R) ch, 192 kbps, Delay 0 mSec
Subtitles:
Chinese
English
VTS_06 :
Play Length: 00:00:17
Video: NTSC 16:9 (720x480) VBR, Auto Letterboxed
VTS_07 :
Play Length: 00:00:11
Video: NTSC 16:9 (720x480) VBR, Auto Letterboxed
Audio:
Not specified, AC3, 3/2 (L,C,R,SL,SR)+LFE ch, 384 kbps, Delay 0 mSec
VTS_08 :
Play Length: 00:00:11
Video: NTSC 16:9 (720x480) VBR, Auto Letterboxed
Audio:
Not specified, AC3, 3/2 (L,C,R,SL,SR)+LFE ch, 384 kbps, Delay 0 mSec
VTS_09 :
Play Length: 00:00:10
Video: NTSC 16:9 (720x480) VBR, Auto Letterboxed
Audio:
Not specified, AC3, 2/0 (L,R) ch, 192 kbps, Delay 0 mSec
=========================================================
Zagovor.s.celyu.Ubiistva.1979.DVD5\VIDEO_TS\VTS_01_2.VOB
Формат : MPEG-PS
Размер файла : 1024 Мбайт
Продолжительность : 21 м. 30 с.
Режим общего битрейта : Переменный
Общий поток : 6657 Кбит/сек
Видео
Идентификатор : 224 (0xE0)
Формат : MPEG Video
Версия формата : Version 2
Профиль формата : [email protected]
Настройки формата : CustomMatrix / BVOP
Параметр BVOP формата : Да
Параметр матрицы формата : Выборочная
Параметр GOP формата : Variable
Структура изображения : Frame
Продолжительность : 21 м. 30 с.
Вид битрейта : Переменный
Битрейт : 6140 Кбит/сек
Максимальный битрейт : 9800 Кбит/сек
Ширина : 720 пикселей
Высота : 480 пикселей
Соотношение сторон : 16:9
Частота кадров : 29,970 (30000/1001) кадров/сек
Стандарт вещания : NTSC
Цветовое пространство : YUV
Субдискретизация насыщенности : 4:2:0
Битовая глубина : 8 бит
Тип развёртки : Чересстрочная
Порядок развёртки : Верхнее поле первое
Метод сжатия : С потерями
Бит/(Пиксели*Кадры) : 0.593
Временной код первого кадра : 10:22:25:09
Оригинал временного кода : Group of pictures header
GOP, открыто/закрыто : Открыто
GOP, открыто/закрыто на первом кадре : Закрыто
Размер потока : 945 Мбайт (92%)
Аудио #1
Идентификатор : 189 (0xBD)-128 (0x80)
Формат : AC-3
Формат/Информация : Audio Coding 3
Режим смешивания : DVD-Video
Продолжительность : 21 м. 30 с.
Вид битрейта : Постоянный
Битрейт : 192 Кбит/сек
Каналы : 2 канала
Расположение каналов : Front: L R
Частота : 48,0 КГц
Частота кадров : 31,250 кадров/сек (1536 SPF)
Битовая глубина : 16 бит
Метод сжатия : С потерями
Задержка видео : -280 мс.
Размер потока : 29,5 Мбайт (3%)
ServiceKind/String : Complete Main
Аудио #2
Идентификатор : 189 (0xBD)-129 (0x81)
Формат : AC-3
Формат/Информация : Audio Coding 3
Режим смешивания : DVD-Video
Продолжительность : 21 м. 30 с.
Вид битрейта : Постоянный
Битрейт : 192 Кбит/сек
Каналы : 2 канала
Расположение каналов : Front: L R
Частота : 48,0 КГц
Частота кадров : 31,250 кадров/сек (1536 SPF)
Битовая глубина : 16 бит
Метод сжатия : С потерями
Задержка видео : -280 мс.
Размер потока : 29,5 Мбайт (3%)
ServiceKind/String : Complete Main
Меню
Скриншоты меню
Скриншоты
Скриншоты доп. материалов
Download
Для скачивания .torrent файлов необходима регистрация
Сайт не распространяет и не хранит электронные версии произведений, а лишь предоставляет доступ к создаваемому пользователями каталогу ссылок на торрент-файлы, которые содержат только списки хеш-сумм
[Профиль]  [ЛС] 

bot · 25-Июн-19 22:20 (спустя 9 часов)

Тема была перенесена из форума DVD Video в форум Азиатские фильмы (DVD Video)
perrelcin
 

basicelement790

Стаж: 9 месяцев

Сообщений: 6


basicelement790 · 26-Июн-19 06:19 (спустя 17 часов)

Спасибо ! .. за Классику кунг фу ... Тема ! ....
[Профиль]  [ЛС] 
 
Ответить
Loading...
Error